Paul Mccartney Flac


	Paul McCartney - Paul McCartney. [ The Paul McCartney Archive Collection (Deluxe Edition) - 2010 / 2013 ]. VA - Good As Gold (Artefacts Of The Apple Era 1967-1975) (2021) "402 Tony Hazzard - Paul McCartney. Silly Love Songs 5:43 Loop De Loop Mix (Full Edit) 07. (11) Biker Like an Icon - Paul McCartney. Mary DuPrie - Photographing Models, Simply Modelin AI RoboForm Enterprise v7. Paul McCartney / Wings - Morse Moose And The Grey Goose (06:26) 15. ( FLAC ) Paul McCartney A Latter Day Best Of Compilation 1CD 24 Song FLAC. Paul McCartney - Studio Rarities Vol. Audio and Video. com Download more publications by: Paul McCartney , Wings ›. 1 Link/s Download (Filecrypt). Paul_McCartney-Egypt_Station__Explorers_Edition-(00602577501470)-2CD-FLAC-2019-WRE FLAC (tracks) 16 bit/ 44,1kHz | Time - 01:33:36 minutes | 606. Artist: Paul McCartney & Wings Title: London Town (Expanded Edition) Year Of Release: 1978 Label: Paul McCartney Catalog Genre: Rock, Pop Quality: Mp3 320 kbps / FLAC (tracks) Total Time: 60:28 Total Size: 143 / 370 MB WebSite: Album Preview. File List (Click to Show) 15M Covers 1. Paul's "Lennon Tribute" (Strawberry Fields / Help! / Give Peace a Chance) are also missing (known as "The Medley" on most set lists). For No One. Growing Up Falling Down (B-side) 03. flac" WAVE TRACK 01 AUDIO TITLE "Long Tailed Winter Bird" PERFORMER "Paul McCartney" REM COMPOSER "" INDEX 01 00:00:00 TRACK 02 AUDIO TITLE "Find My Way" PERFORMER "Paul McCartney" REM COMPOSER "" INDEX 01 05:16:44 TRACK 03 AUDIO TITLE "Pretty. 	ExtraTorrents. 03 - Artista desconocido - Título desconocido. Find My Way (Single) (2021) Buy album for € 0. Mar 15, 2015 ·  Paul McCartney Some of You, released 15 March 2015. Aug 21, 2019 ·  Paul McCartney – Egypt Station (Explorer’s Edition) Released: 2019 Genre: Rock Bitrate: FLAC & MP3 320 KBPS. McCartney III Imagined (2021) Buy album for € 1. Paul McCartney & Wings - London Town (Expanded Edition) [16Bit-44. Find My Way Paul McCartney 2021 From $1. Paul McCartney: McCartney III (2020) FLAC Album [PMEDIA] Download was added 8 months ago in the Music download category. FORMAT: Lossless (Flac) SIZE: 316 mb (3% Recovery) This is a collection of soundboard recordings from Wings' 1972 Summer Tour Of Europe. 16-bit FLAC; Preview McCartney III Imagined. To the Arctic. 11-12 Publisher: Unknown Reference: - Date: 2003 Source: Trade (CD-R) -> EAC (log included) -> FLAC Artwork: from BootlegZone (included) 01 Mull Of Kintyre - Session, August 1977 02 Waterspout - Early take one, August 1977 03 Waterspout - Early take two, August 1977. com) del álbum Band On The Run, y esta en 24-bit/96 kHz en formato FLACcuesta 20 dólares por si la quieren descargar desde la pagina de Paul, si lo quieren gratis lean más abajo. : Ye are free: tae share - tae copy, distribute an transmit the wirk; tae remix - tae adapt the wirk; Unner the follaein condeetions: attribution - Ye must attribute the wirk in the manner specified bi the author or licensor (but nae in ony way that suggests that thay endorse ye or yer uise o the wirk). Paul McCartney – McCartney III (2020) {WEB Hi-Res} WEB Download | Hi-Res / FLAC Tracks / 24bit / 96kHz Total Size: 984 MB | 3% RAR Recovery Label: Capitol Records | Genre: Pop Rock. Tracklist: Disc 1: 1 Opening Station 2 I Don’t Know 3 Come On To Me 4 Happy With You 5 Who Cares 6 Fuh You 7 Confidante 8 People Want Peace 9 Hand In Hand 10 Dominoes 11 Back In Brazil 12 Do It Now 13 Caesar Rock 14 Despite. Paul McCartney & Wings: 1976-05-03 Fort Worth, TX (FLAC_AUD_Bootradr Remaster_2 CD) This is an excellent sounding show from the first night of the Paul McCarteny & Wings tour (or so says Paul McCartney) in 1976. Dec 18, 2020 ·  Paul McCartney MoMac's Hidden Tracks The McCartney Recording Sessions Vol. Paul Mccartney - Mccartney (First Us Pressing Needledrop)(Jgster6969). Recording: Schoeps MK41s > Nbob actives > Nbox Platinum (ABS). This was the last show of the Wings' Tour in 1979. Watch and download free files flac, mp3, ogg. 	Listen To What The Man Said (Early Take 2, Jan-Feb 1975) 02. For No One. McCartney's songs have hundreds of millions of copies worldwide; "Yesterday," written for the Beatles in 1965, has been played over six million times on U. ( FLAC ) Paul McCartney A Latter Day Best Of Compilation 1CD 24 Song FLAC. Paul McCartney - McCartney III (2020) {WEB Hi-Res} WEB Download | Hi-Res / FLAC Tracks / 24bit / 96kHz Total Size: 984 MB | 3% RAR Recovery Label: Capitol Records | Genre: Pop Rock. Paul McCartney & Wings - Unsurpassed Masters Vol 1 (1994) GENRE: Rock. His songwriting partnership with John Lennon remains the most successful in history. 2016 Misterclaudel MCCD - 382/383/384/385  02 - Artista desconocido - Título desconocido. Pretty Boys (feat. Hello, Goodbye 02. Files: Paul McCartney - Press To Play (1986) FLAC. 1989 - Paul McCartney - Flowers In The Dirt. Download 11 Through our love Paul McCartney flac. Preview Find My Way. Paul McCartney & Wings - Last Flight - The Complete 1979 Glasgow Concert (1979-12-17) FLAC GENRE: Rock FORMAT: Lossless (Flac) SIZE: 733 mb (3% Recovery) Tracks from disc 1 and tracks 1-5 from disc 2 are the complete performance that the final incarnation of Wings played at the Apollo Theatre in Glasgow, Scotland on December 17, 1979. Album: Wings At The Speed Of Sound Remastered Deluxe Edition. Wings were noted for frequent personnel changes along with their commercial. Paul McCartney 1942 A MusiCares Tribute to Paul McCartney. The highest quality of audio that you can download is flac. Rihanna & Paul McCartney,Kanye West - FourFiveSeconds ( Flac ) Postado por Stars Team às segunda-feira, novembro 13, 2017. 		Published 2nd November, 2021. [Flac] Pop rock, Soft rock, Folk rock, Rock sperimentale DISCOGRAFIA 1967-2013::::: Bio & Info :::::Sir James Paul McCartney (Liverpool, 18 giugno 1942) è un cantautore, polistrumentista, compositore, produttore discografico e cinematografico, sceneggiatore, attore, pittore e attivista britannico. Find My Way (Single) (2021) Buy album for € 0. Download Paul McCartney - Flaming Pie [1997] FLAC torrent for free, Downloads via Magnet Link or FREE Movies online to Watch in LimeTorrents. Powered by Blogger. Paul McCartney and Wings - Last Flight: The Complete 1979 Glasgow Concert (1998) Tracks from disc 1 and tracks 1-5 from disc 2 are the complete performance that the final incarnation of Wings played at the Apollo Theatre in Glasgow, Scotland on December 17, 1979. When The Night - Paul McCartney & Wings (1973) 24bit FLAC Audio Remaster. Catalog #: TOCP-5991 Style: Pop Rock Year: 1980 (Reissue 1990) Format: FLAC (image +. Warm and Beautiful 5. Paul McCartney. rar fast and secure. Jan 22, 2021 ·  Paul McCartney - McCartney III (2020) FLAC McCartney III — восемнадцатый студийный альбом британского музыканта Пола Маккартни , вышедший 18 декабря 2020 года на лейбле Capitol Records. I Don't Know 3. 17MP3+Flac/RAR) By admin On August 22, 2019 In jpop With No Comments. All orders receive a download of the McCartney album, plus all bonus audio and film content that ships with that package. Paul McCartney & Wings: Wings Over America 24 Bit 96 Khz FLA. 8 MB 1971 - Wild Life/03. Paul McCartney / Wings – Don’t Let It Bring You Down (04:33) 14. 	Entrada más reciente Entrada antigua Inicio. The Kiss Of Venus (Single) (2021) Buy album for € 0. Paul McCartney - Amoeba Gig (2019)[Flac][Mega] Sir James Paul McCartney CH MBE (born 18 June 1942) is an English singer, songwriter, musician, composer, and record and film producer who gained worldwide fame as co-lead vocalist and bassist for the Beatles. 03 - Artista desconocido - Título desconocido. Heart Of The Country (2:25) 03. File List (Click to Show) 15M Covers 1. Preview Find My Way. Featured peformers: Paul McCartney (vocals, songwriter), David Kahne (producer, programming, engineer, mixing), Adam Noble (engineer, assistant engineer), Steve Orchard (engineer), Geoff Emerick (engineer. Keyboards & Wind Synthesizer Soundcheck (Lady Madonna / Listen to What the Man Said). Paul Mccartney Wings - Band on the Run (2010 Remaster, Special Ed. Mardi Gras In New Orleans (Jan-Feb 1975). Silly Love Songs 3:24 Loop De Loop Mix (Radio Edit) 08. 97 MiB ) : Filehosts: Nitroflare, DropAPK, Rapidgator Download from Nitroflare. London Town – Remastered 1993 (04:09). In this extraordinary book, with unparalleled candour, Paul recounts his life and art through the prism of 154 songs from all stages of his career. 93 MB | Genre: Pop. Paul McCartney - McCartney III (2021) © Capitol Records (602435136592) EU Time : 00:44:46 (00:20:49+00:23:57) Все Спасибо : svk_1957. One of two new reissues in the Paul McCartney Archive Collection, personally supervised by Paul McCartney. 2017 Sept 15. Uploaded 01-16 2019, Size 6. zip 996,40 Mb | on the flac. 0 kHz, flac, Hi-res, hires, McCartney III, Paul McCartney Previous post: [MKV] Dạ Cổ Hoài Lang (2017) Next post: [MKV] Cua Lại Vợ Bầu (2019) Related Posts. 8 MB: Paul McCartney - Wingspan - Hits And History (2001) [2CD] Flac/CD1 - Hits/07. Dec 18, 2020 ·  Paul McCartney MoMac's Hidden Tracks The McCartney Recording Sessions Vol. 	Label: Misterclaudel ‎- (mccd - 380/381). Dec 18, 2020 ·  Paul McCartney MoMac's Hidden Tracks The McCartney Recording Sessions Vol. Publication date  01 - Artista desconocido - Título desconocido. FLAC (tracks) 16 bit/ 44,1kHz | Time – 02:02:56 minutes | 778. 1 - Wings Take Flight 1970-1972 / 1DVD / Fab Productions / 2010 / VOB. Recording: Schoeps MK41s > Nbob actives > Nbox Platinum (ABS). Paul McCartney - McCartney III (2020) {WEB Hi-Res} WEB Download | Hi-Res / FLAC Tracks / 24bit / 96kHz Total Size: 984 MB | 3% RAR Recovery Label: Capitol Records | Genre: Pop Rock. "Every Night" was released on Paul McCartney's debut solo album, titled simply McCartney, in the spring of 1970. Paul McCartney BBC Radio4 Front Row 26 Dec 2012 b01pg54v. 1kHz / 24bit - 48. Paul McCartney & Wings - London Town (Expanded Edition) [16Bit-44. "I actually started Memory Almost Full before the album Chaos And Creation In The Backyard," Paul remembers. Paul McCartney - Discografia ( 39 Álbuns, 32 Singles, 2 Box sets + Bônus - 1970 / 2013 ) ( Torrent ) [ MP3 / Soft Rock / Pop Rock / 320 kbps ] Em 1979, o Livro dos Recordes declarou-o como o compositor musical de maior sucesso da história da música pop mundial de todos os tempos. Paul McCartney - Off The Ground 46. Footprints - Early Take, April-June 1985 02. Paul McCartney - My Love. File List (Click to Show) 15M Covers 1. Band on the Run was a commercial success, but even if it was billed as a Wings effort, it was primarily recorded by Paul, Linda, and Denny Laine. 15 Paul McCartney - Driving Rain - Rinse The Raindrops. Jun 27, 2018 ·  Paul McCartney – Pure McCartney (Deluxe) Released: 2016 Genre: Rock, Adult Contemporary Bitrate: FLAC & MP3 V0 VBR. Paul McCartney - McCartney II (1980) Artist: Paul McCartney Album: McCartney II Label: Parlophone. Tracklist: 1. Download MP3 di alta qualità di Paul McCartney su 7digital Italia. 		Download Paul_McCartney_-_McCartney_III_Imagined_(2021)_FLAC. 0 Unported license. Availability: noshow. Search for Toggle Navigation. cue,log,scans) / 320 kbps Total Size: 583/283 MB. Paul McCartney. Rinse The Raindrops (04 Summer Tour Remix). Heart of the Country 3. Download (22 MB) FindFlac. Style: Rock. The highest quality of audio that you can download is flac. PERFORMER "Paul McCartney" TITLE "McCartney III" REM COMPOSER "" FILE "Paul McCartney - McCartney III. radio stations, making it the most popular. 1 CD1 (01:18:37) 1. TRACKLIST: Tracks 1-9 August 22, 1972 Antwerp, Belgium. Non MTV McCartney Unplugs - Paul McCartney - Summer Of 59. Edited and Introduced by Paul Muldoon. Udiscovermusic. #spotifyfansfirst Hailed upon its release last year as "vital and comfortable taking new chances" (Rolling Stone) and "cheery, resilient, forever looking forward" (The New Yorker), Paul McCartney's McCartney III, which topped album charts across the world, is now literally moving into the future in the form of McCartney III Imagined. comPaul McCartney , Kanye West Top Billboard’s ‘Hot Tours’ Tally Rolling Stone · 1 day ago As Billboard reports, the tour’s final leg took place in Japan, where McCartney hadn’t performed in 11 years. Mark Knopfler - 2005-04-12 - Vienna, Austria - flac; Paul McCartney - 2017 - Madison Square Garden - flac; Neil Young - Farm Aid - 2017-09-16 - flac; Pop Ads. "Junk" and "Singalong Junk" were released on Paul McCartney's debut solo album, titled simply McCartney, in the spring of 1970. Tags: paul mccartney. Find My Way (feat. Paul McCartney - Studio Rarities Vol. 	Paul Mccartney - Band on the Run (Delux Edition Archive Collection Remaster 2010 3CD) [1973, Classic Rock, FLAC] Формат: FLAC, (image +. 4M Covers/Paul McCartney - The Platinum Collection - Back. Concert Film on DVD. Free Listen. Paul McCartney: All The Best! (87) (93) Flac Image. Badfinger - Timeless The Musical Legacy [2013] UK Pop Rock s. The album featured a very lo. Mardi Gras In New Orleans (Jan-Feb 1975). Paul McCartney / Wings – Morse Moose And The Grey Goose (06:26) 15. Silly Love Songs 6:20 Artful Dodger Mix 06. Audio: FLAC CD / 44. Part 2 13 CD + 1 DVD (2001-2020) FLAC в формате FLAC через торрент. Beatles Brasil Brazil carreira solo cd-shm coletânea compilation documentário documentary downloads dvd dvdrip EUA ex-beatle FLAC Get Back Tour Grammy Italy iTunes Japan Kanye West Lady Gaga lossless m4a notícias Paul McCartney Rihanna Rio de Janeiro Tonny Bennett video. Paul McCartney - Press To Play Sessions by Paul McCartney. Mumbo Link. Listen to What the Man Said 6. Paul McCartney - McCartney III (2020, Deluxe Edition) 26-07-2021, 09:00 Artist: Paul McCartney Title: McCartney III Year Of Release: 2020 Genre: Classic Rock Quality: FLAC (image+. The Song We Were Singing 9. Uploaded 01-16 2019, Size 6. Format : Flac (tracks) Quality : 16bit – 44. Keyboards & Wind Synthesizer Soundcheck (Listen to What the Man Said) 04. June 2015 EAC extraction logfile from 9. Find My Way Paul McCartney 2021 From $1. [Flac] Pop rock, Soft rock, Folk rock, Rock sperimentale DISCOGRAFIA 1967-2013::::: Bio & Info :::::Sir James Paul McCartney (Liverpool, 18 giugno 1942) è un cantautore, polistrumentista, compositore, produttore discografico e cinematografico, sceneggiatore, attore, pittore e attivista britannico. Featured peformers: Paul McCartney (vocals, songwriter), David Kahne (producer, programming, engineer, mixing), Adam Noble (engineer, assistant engineer), Steve Orchard (engineer), Geoff Emerick (engineer. 	Udiscovermusic. http://flacmania. 8 MB 1971 - Wild Life/03. Download Paul_McCartney_-_McCartney_III_(Deluxe_Edition)_(2021)_FLAC. Find My Way (feat. Preview Find My Way. Listen To What The Man Said 6. Album: Holidays. Treat Her Gently/Lonely Old People (Early Take 1, Jan-Feb 1975) 03. Category: FLAC 96kHz/24bit Download: Only Available in the USA: Description; Tracks  View our Top 50 FLAC 96kHz/24bit Download: Home. Paul's "Lennon Tribute" (Strawberry Fields / Help! / Give Peace a Chance) are also missing (known as "The Medley" on most set lists). 1 kHz (Tracks) Performer: Paul McCartney & Wings Album: Wings at the Speed of Sound (Deluxe Edition) Published: 1976 / 2014 Genre: Rock File Size: 1. Released: 2014. Paul Mccartney Wings - Band on the Run (2010 Remaster, Special Ed. ( Music videos ) Paul McCartney - 2018-10-05 Austin City Limits - 1080p. 4 MB) 02 - Good Times Coming & Feel The Sun. Paul McCartney & Wings - Holidays (2020) FLAC. 		Lossless-P2P. flac download. McCartney - Pure McCartney (Deluxe) Released: 2016 Genre: Rock, Adult Contemporary Bitrate: FLAC & MP3 V0 VBR. Files: Paul McCartney - Twin Freaks FLAC. She Is So Beautiful (Japan only bonus track) 04. Paul McCartney 2015-04-25 Tokyo, JP (AUD+IEM/FLAC) Paul McCartney 2015-04-25 Tokyo, JP (AUD+IEM/FLAC) 2015 Tokyo Dome 2nd Night MK4 Master IEM Matrix EVSD-843/844/845. Music of the Spheres is an eight-part musical companion piece to Destiny, composed by Marty O'Donnell together with Michael Salvatori and Paul McCartney. McCartney III Imagined Paul McCartney 2021 From 16,49. Paul McCartney - Press To Play Sessions by Paul McCartney. Скачать альбом Paul McCartney - Maxi-Singles Collection Vol. 7 504 313 tykkäystä · 75 619 puhuu tästä. Love Is Strange. Direct Download Free Movies Mp3's Software Programs Stock Images » MUSIC » Paul McCartney (Premium Recommend). Featured peformers: Paul McCartney (vocals, songwriter), David Kahne (producer, programming, engineer, mixing), Adam Noble (engineer, assistant engineer), Steve Orchard (engineer), Geoff Emerick (engineer. [ The Paul McCartney Archive Collection (Deluxe Edition) - 2010 / 2013 ]. Actor, composer, guest star, director, producer. Paul McCartney - Wild Life Demos [RS 01 2003] FLAC The Beatles - Paris Left Breathless [20th June 1965 (Afternoon Show + Evening Show)] | Misterclaudel (mccd - 158-160) | 2010 | FLAC Paul McCartney / Maccaspan Vol. Aug 21, 2019 ·  Paul McCartney – Egypt Station (Explorer’s Edition) Released: 2019 Genre: Rock Bitrate: FLAC & MP3 320 KBPS. DETAILS: Artist: Paul McCartney & Wings Date: May 3rd. Paul McCartney - Archive Collection: 7 Albums (2010-2014) {Remastered, Deluxe Edition} EAC Rip | 19 CDs | FLAC Image + Cue + Log | Full Scans @600 dpi,. Paul McCartney is getting into the festive spirit with the release today (20) of the Christmas-themed digital EP Holidays. Entrada más reciente Entrada antigua Inicio. 1 Link/s Download (Filecrypt). 02 Album: Wingspan - Hits And History Artist: Paul McCartney Tracklist: 1 Listen To What The Man. Music; Digital Download; FLAC Downloads; FLAC 96kHz/24bit Download; Paul McCartney - NEW (Collector's Edition) Label: Hear Music: Genre: Pop/Rock: Product No. 	03rd '19: 188. Dave Edmunds - Born To Be With You 3:28 17. 4M Covers/Paul McCartney - The Platinum Collection - Back. 53 GB WebSite: Album Preview. Paul McCartney - McCartney III (2020) Mp3 320kbps [PMEDIA] ⭐️. News about Paul Mccartney - New [2013] [Deluxe] [Flac] bing. Silly Love Songs 8. Udiscovermusic. Play Long Tailed Winter Bird (Idris Elba Remix) by Paul McCartney & Idris Elba (02:44) – Paul McCartney & Idris Elba. THE BEATLES WINGS PAUL McCARTNEY SMOKIE SWEET. Paul McCartney - Blackbird 44. Mary DuPrie - Photographing Models, Simply Modelin AI RoboForm Enterprise v7. McCartney-McCartney. VA - Good As Gold (Artefacts Of The Apple Era 1967-1975) (2021) "402 Tony Hazzard - Paul McCartney. The album featured a very lo. Growing Up Falling Down (B-side) 03. She Is So Beautiful (Japan only bonus track) 04. 	Watch and download free files flac, mp3, ogg. Format : Flac (tracks) Quality : 16bit – 44. 6 MB 1970 - McCartney/Paul McCartney - McCartney. : XUNI62000F96. This is just perfect!!!!!. Archive, Rock. Silly Love Songs 8. 8 MB 1971 - Wild Life/03. Paul McCartney ♪ Paul McCartney is the most commercially successful rock composer of all time, both as a solo performer (with his '70s band Wings) and, most notably, as a member of The Beatles. Download 11 Through our love Paul McCartney flac. Warm And Beautiful 5. Paul McCartney & Wings - Holidays (2020) FLAC. 1 KB 1973 - Band On The Run/01. Bip Bop Link. Paul McCartney - Good Evening New York City. 19-20 Publisher: Unknown Reference: - Date: 2003 Source: Trade (CD-R) -> EAC (log included) -> FLAC Artwork: from BootlegZone (included) 01. Paul McCartney - Chronicles In The Backyard (STU/FLAC) 12 CDs. Catalog #: TOCP-5991 Style: Pop Rock Year: 1980 (Reissue 1990) Format: FLAC (image +. 8M Covers/Paul McCartney - The Platinum Collection - Booklet 2. 		Non MTV McCartney Unplugs - Paul McCartney - Summer Of 59. It complements the appearance last week of the Home EP, in a series of. 1 kHz (Tracks) Performer: Paul McCartney & Wings. Wings were noted for frequent personnel changes along with their commercial. Press #2 - 12'' Dub Mix, April-June 1985. Album info: Quality-Lossless Release-2021 File Size-1100 MB Samplerate: 44100 Hz Channels: 2 Bits per sample: 16 Codec: Flac Rock Run Time 2. Найдено 15 композиций. Both songs are instrumentals, with the A-side being a 20s-style swing number written by Paul's dad & the B-side a slower & bluesier song. ] Paul_McCartney-Good_Evening_New_York_City- (HRM-31857-00)-2CD-FLAC-2009-MUNDANE. 24-bit FLAC. Paul McCartney & Wings - Wings Greatest (Remastered) (1978/2020) [FLAC 24bit/44,1kHz] Hi-Res Digital Download. Please Update (Trackers Info) Before Start "Paul McCartney - Paul Is Live[Flac Cue][TntVillage]" Torrent Downloading to See Updated Seeders And Leechers for Batter Torrent Download Speed. Paul McCartney and Wings (also known by their original name Wings) were a Britishâ American rock band formed in 1971 by former Beatle Paul McCartney, his wife Linda McCartney on keyboards, session drummer Denny Seiwell, and former Moody Blues guitarist Denny Laine. Paul McCartney & Wings: Wings Over America 24 Bit 96 Khz FLA. Слушать альбом. 	Opening Station 2. Official Paul McCartney account administered by MPL | Text me: +1(212)313-9547 Rick Rubin x Paul McCartney. Paul McCartney ♪ Paul McCartney is the most commercially successful rock composer of all time, both as a solo performer (with his '70s band Wings) and, most notably, as a member of The Beatles. TRACKLIST: Tracks 1-9 August 22, 1972 Antwerp, Belgium. FLAC CD / Rock. 1,2,3 (2004), FLAC - Free epub, mobi, pdf ebooks download, ebook torrents download. Dear Boy 7. Paul proudly announces the 11th and 12th classic works from his revered catalogue to be remastered, reissued and expanded across multi-format. Paul McCartney - Paul McCartney. Детали релиза Paul McCartney (1970-2020) [Vinyl] [FLAC (tracks)] Скачать. Produced by Paul, Jeff Lynne and George Martin and featuring a supporting cast of family and friends including Ringo Starr, Steve Miller, Linda McCartney and son James, Flaming Pie is equal parts a masterclass in songcraft and a sustained burst of joyful spontaneity. Paul Mccartney - Band on the Run (Delux Edition Archive Collection Remaster 2010 3CD) [1973, Classic Rock, FLAC] Формат: FLAC, (image +. Paul McCartney: Pipes Of Peace (Deluxe Edition) 24Bit FLAC ANDYT. [Album] Paul McCartney - Egypt Station (2019. VA - Good As Gold (Artefacts Of The Apple Era 1967-1975) (2021) "402 Tony Hazzard - Paul McCartney. Find My Way (Single) (2021) Buy album for € 0. Tags: paul mccartney. 	Opening Station 2. 1kHz / 24bit - 48. Mardi Gras In New Orleans (Jan-Feb 1975). Availability: noshow. Paul McCartney - McCartney III (2021) © Capitol Records (602435136592) EU Time : 00:44:46 (00:20:49+00:23:57) Все Спасибо : svk_1957. Produced by Paul, Jeff Lynne and George Martin and featuring a supporting cast of family and friends including Ringo Starr, Steve Miller, Linda McCartney and son James, Flaming Pie is equal parts a masterclass in songcraft and a sustained burst of joyful spontaneity. mccartney iii available now. McCartney III Imagined Spotify Exclusive Vinyl. Paul_McCartney-Egypt_Station__Explorers_Edition-(00602577501470)-2CD-FLAC-2019-WRE FLAC (tracks) 16 bit/ 44,1kHz | Time - 01:33:36 minutes | 606. Rinse The Raindrops (04 Summer Tour Remix). Paul McCartney - Good Evening New York City. Mumbo Link. Category: FLAC 96kHz/24bit Download: Only Available in the. 15 MiBRock | MPEG Audio 320 kb/s CBR. Детали релиза Paul McCartney (1970-2020) [Vinyl] [FLAC (tracks)] Скачать. But following O'Donnell's dismissal from and subsequent legal dispute with Bungie. McCartney's songs have hundreds of millions of copies worldwide; "Yesterday," written for the Beatles in 1965, has been played over six million times on U. rar fast and secure. Posted by NewAlbumReleases. 320kbps MP3 + 320kbps M4A + PDF. [5] It serves as a continuation to his solo albums McCartney (1970) and McCartney II (1980). 		Got To Get You Into My Life - Paul McCartney 03. Dear Boy 7. it > Categories > Music torrents > Lossless torrents. Preview The Kiss Of Venus. Music of the Spheres is an eight-part musical companion piece to Destiny, composed by Marty O'Donnell together with Michael Salvatori and Paul McCartney. Paul McCartney - Wild Life Demos [RS 01 2003] FLAC The Beatles - Paris Left Breathless [20th June 1965 (Afternoon Show + Evening Show)] | Misterclaudel (mccd - 158-160) | 2010 | FLAC Paul McCartney / Maccaspan Vol. I Love Google and YouTube. Tracks: 16 | Source: Scene. Edition-2020-320. Audio only. Paul McCartney - Press To Play Sessions by Paul McCartney. Download Paul McCartney - Flaming Pie [1997] FLAC torrent for free, Downloads via Magnet Link or FREE Movies online to Watch in LimeTorrents. Paul McCartney: Pipes Of Peace (Deluxe Edition) 24Bit FLAC ANDYT. This special 26th anniversary edition has been remastered from newly discovered sources, surpassing all previously available versions of this material. Uploaded 01-16 2019, Size 6. lossless: 10d; 25. 4M Covers/Paul McCartney - The Platinum Collection - Back. Find My Way Paul McCartney 2021 From $1. 18th '20: 285. flac download. June 2015 EAC extraction logfile from 9. 7M Covers/Paul McCartney - The Platinum Collection - Booklet 1. 	Growing Up Falling Down (B-side) 03. Tags:Adult Contemporary, Album, Best Album, Lossless, Paul McCartney. One of two new reissues in the Paul McCartney Archive Collection, personally supervised by Paul McCartney. "Junk" and "Singalong Junk" were released on Paul McCartney's debut solo album, titled simply McCartney, in the spring of 1970. 1 kHz (Tracks) Performer: Paul McCartney & Wings. ExtraTorrents. Download Paul McCartney (Wings) - Wingspan (2 CD) [2001] FLAC torrent for free, Downloads via Magnet Link or FREE Movies online to Watch in LimeTorrents. #spotifyfansfirst Hailed upon its release last year as "vital and comfortable taking new chances" (Rolling Stone) and "cheery, resilient, forever looking forward" (The New Yorker), Paul McCartney's McCartney III, which topped album charts across the world, is now literally moving into the future in the form of McCartney III Imagined. The highest quality of audio that you can download is flac. ( Music videos ) Paul McCartney - 2018-10-05 Austin City Limits - 1080p. THE BEATLES WINGS PAUL McCARTNEY SMOKIE SWEET. In this extraordinary book, with unparalleled candour, Paul recounts his life and art through the prism of 154 songs from all stages of his career. com is a free search engine: flac, mp3, ogg and mp4. McCartney-McCartney. Michelle - John Lennon & Paul McCartney. 82 MB | Genre: Rock. 1,2,3 в формате FLAC через торрент. Paul McCartney - Hope Of Deliverance 42. Paul Mccartney - Greatest Songs (2018) Mp3 (320kbps) [Hunter] 87: 13: Apr. FLAC Stereo 801 Kbps MP3 320 Kbps. Find My Way (feat. Got To Get You Into My Life - Paul McCartney 03. 	Size: 156 Mb. flac" WAVE TRACK 01 AUDIO TITLE "Long Tailed Winter Bird" PERFORMER "Paul McCartney" REM COMPOSER "" INDEX 01 00:00:00 TRACK 02 AUDIO TITLE "Find My Way" PERFORMER "Paul McCartney" REM COMPOSER "" INDEX 01 05:16:44 TRACK 03 AUDIO TITLE "Pretty. Long Haired Lady (Reprise) (04 Summer Tour Remix). flac" yEnc (1/11) LoFi: a. Paul McCartneyのディスコグラフィ <プロフィール>1942年6月18日、英リヴァプール生まれのミュージシャン。 ザ・ビートルズのメンバーとして世界的名声を確立。. The David Kahne-produced Memory Almost Full was Paul's first album to be released through Starbucks' Hear Music label. Play Long Tailed Winter Bird (Idris Elba Remix) by Paul McCartney & Idris Elba (02:44) - Paul McCartney & Idris Elba. THE BEATLES WINGS PAUL McCARTNEY SMOKIE SWEET. 85 GiB, ULed by GRNS3. Play over 265 million tracks for free on SoundCloud. Genres: Pop Rock, Singer/Songwriter. 8M Covers/Paul McCartney - The Platinum Collection - Booklet 2. Download MP3 di alta qualità di Paul McCartney su 7digital Italia. 0888072303485; CD). Wings were noted for frequent personnel changes along with their commercial. Tracklist: 1. flac download. 00 kbps avg Size: 1,82 Gb Tracklist: 01. 		Silly Love Songs 8. Paul McCartney is getting into the festive spirit with the release today (20) of the Christmas-themed digital EP Holidays. Paul McCartney - No More Lonely Nights (Playout Version) [03:55] {966 kbps} Download Paul McCartney - Wingspan - Hits And History (2001) [2CD]. Paul McCartney - McCartney III. Paul McCartney - Discography (with Linda McCartney, Wings) 1967-2013, FLAC (image+. Paul McCartney - McCartney III Imagined (2021) Hi-Res. Free Download MP3 320kbps + FLAC. New York, NY. Always incredibly hard-working, McCartney never relents here — his patter isn't. Paul McCartney: All The Best! (87) (93) Flac Image. Paul McCartney - Wild Life Demos [RS 01 2003] FLAC The Beatles - Paris Left Breathless [20th June 1965 (Afternoon Show + Evening Show)] | Misterclaudel (mccd - 158-160) | 2010 | FLAC Paul McCartney / Maccaspan Vol. Paul McCartney / Wings - Name And Address (03:07) 13. Download Paul McCartney - Flaming Pie [1997] FLAC torrent for free, Downloads via Magnet Link or FREE Movies online to Watch in LimeTorrents. Memory Almost Full (CD2) (2020). McCartney-McCartney. listen now. альбом включает в себя следующие треки: Vol. Paul McCartney - McCartney (Deluxe Version) Released: 2011 Genre: Rock Bitrate: MP3 320 KBPS. Найдено 15 композиций. Paul McCartney. EAC Rip | FLAC (tracks+log+. Watch and download free files flac, mp3, ogg. Files: Paul McCartney - Twin Freaks FLAC. 2017 Sept 15. 	PERFORMER "Paul McCartney" TITLE " New [Collector's Edition/Disc#1]" FILE "Paul McCartney - New [Collector's Edition,Disc#1]. Search for Toggle Navigation. My last video (The J. Udiscovermusic. Paul McCartney & Wings - Unsurpassed Masters Vol 1 (1994) GENRE: Rock. McCartney III Imagined. #McCartney321 is now streaming on @disneyplusuk. 1,2,3 в формате FLAC через торрент. Featured peformers: Paul McCartney (vocals, songwriter), David Kahne (producer, programming, engineer, mixing), Adam Noble (engineer, assistant engineer), Steve Orchard (engineer), Geoff Emerick (engineer. McCartney III Imagined Spotify Exclusive Vinyl. cue,log,scans) / 320 kbps Total Size: 583/283 MB. Paul McCartney - McCartney III Imagined (2021) Paul Mccartney-Ou Est Le Soleil-12INCH VINYL-FLAC-1988-LoKET; Paul McCartney - Tripping The Live Fantastic - highlights! (1990) {Capitol} Paul McCartney ‎- Maxi-Singles Collection Vol. Hot As Sun - Glasses - Suicide (complete version) 02. TRACKLIST: 1. Travel theme. 	Paul McCartney ♪ Paul McCartney is the most commercially successful rock composer of all time, both as a solo performer (with his '70s band Wings) and, most notably, as a member of The Beatles. Paul McCartney – McCartney III (2020) {WEB Hi-Res} WEB Download | Hi-Res / FLAC Tracks / 24bit / 96kHz Total Size: 984 MB | 3% RAR Recovery Label: Capitol Records | Genre: Pop Rock. [Flac] Pop rock, Soft rock, Folk rock, Rock sperimentale DISCOGRAFIA 1967-2013::::: Bio & Info :::::Sir James Paul McCartney (Liverpool, 18 giugno 1942) è un cantautore, polistrumentista, compositore, produttore discografico e cinematografico, sceneggiatore, attore, pittore e attivista britannico. 09 Paul McCartney & Wings - Band On The Run - Nineteen Hundred And Eighty Five. Dec 18, 2020 ·  Paul McCartney MoMac's Hidden Tracks The McCartney Recording Sessions Vol. My last video (The J. TRACKLIST: Tracks 1-9 August 22, 1972 Antwerp, Belgium. McCartney's songs have hundreds of millions of copies worldwide; "Yesterday," written for the Beatles in 1965, has been played over six million times on U. 25 MB ) MY LOVE - Paul McCartney Wings - 1973. Слушать альбом. Paul McCartney. Again And Again And Again - Paul McCartney & Wings (1979) FLAC Remaster  Publicado por letvel en 19:25. Audio and Video. Download 11 Through our love Paul McCartney flac. (2020) Paul McCartney - McCartney III Review: Like its predecessors McCartney (1970) and McCartney II (1980), McCartney III was written, recorded and produced entirely by Sir Paul McCartney — this time, created alone during a COVID-19 lockdown. 		EMI Promo Interview Disc {tracks 4-33}. paul mccartney - sun devil stadium, tempe, az; april 4, 1990 audience analog master>cdr>eac>flac set list: disc one: 1: figure of eight 2: jet 3: not to get you into my life 4: rough ride 5: band on the run 6: we got married 7: let `em in 8: the long and winding road 9: fool on the. rar fast and secure. Released 4 June 2007 on Hear (catalog no. Pop, Rock | Label: Capitol Records. The David Kahne-produced Memory Almost Full was Paul's first album to be released through Starbucks' Hear Music label. Silly Love Songs 3:24 Loop De Loop Mix (Radio Edit) 08. Geils Band's "Teresa". Nov 15, 1993 ·  Paul McCartney - 1993-11-15 Tokyo Dome - flac Thanks To Google and YouTube. June 2016, 17:22 Paul McCartney / Pure McCartney (CD1) Used drive : HL-DT-STDVDRAM GH24NSD1 Adapter: 0 ID: 0. Just as McCartney's 1970 release marked Paul's return to basics in the wake of the biggest band break-up in musical history, and the 1980 avant-garde masterpiece McCartney II rose from the ashes of Wings, McCartney III finds Paul back on his own, turning unexpected circumstances into a personal snapshot of a timeless artist at a unique. »View Details. Halsey - If I Can't Have Love, I Want Power (Target Exclusive, CD) $13. 8M Covers/Paul McCartney - The Platinum Collection - Booklet 2. Paul McCartney & Wings – London Town (Expanded Edition) (2021) By flacmusic 2021, Flac, Rock 0 Comments. comPaul McCartney , Kanye West Top Billboard's 'Hot Tours' Tally Rolling Stone · 1 day ago As Billboard reports, the tour's final leg took place in Japan, where McCartney hadn't performed in 11 years. Paul McCartney ♪ Paul McCartney is the most commercially successful rock composer of all time, both as a solo performer (with his '70s band Wings) and, most notably, as a member of The Beatles. Free Listen. ] Paul_McCartney-Good_Evening_New_York_City- (HRM-31857-00)-2CD-FLAC-2009-MUNDANE. Paul proudly announces the 11th and 12th classic works from his revered catalogue to be remastered, reissued and expanded across multi-format. 1 kHz (Tracks) Performer: Paul McCartney & Wings. Official Paul McCartney account administered by MPL | Text me: +1 (212) 313-9547 |. Udiscovermusic. Parts of the music were used to accompany a Destiny trailer at E3 2013, and in the official soundtrack. 	Genre : Rock Release Date : 2021 Format : Flac (tracks) / Flac (tracks) Quality : 16bit - 44. FLAC (tracks) 16 bit/ 44,1kHz | Time – 02:02:56 minutes | 778. Paul proudly announces the 11th and 12th classic works from his revered catalogue to be remastered, reissued and expanded across multi-format. 1 kHz (Tracks) Performer: Paul McCartney & Wings. 8M Covers/Paul McCartney - The Platinum Collection - Booklet 2. Paul McCartney & Wings - 1971-73 (2018) FLAC (tracks) 24-bit/96 kHz | Time - 06:31:42 minutes | 7,77 GB | Genre: Rock. to je v Čechách a na Slovensku jedničkou pre slobodné zdieľanie súborov. File List (Click to Show) 15M Covers 1. Ultimate Uploads ( FLAC ). One of two new reissues in the Paul McCartney Archive Collection, personally supervised by Paul McCartney. 09 Paul McCartney & Wings - Band On The Run - Nineteen Hundred And Eighty Five. com Download more publications by: Paul McCartney , Wings ›. Nome: Pure McCartney Banda/Cantor(a): Paul McCartney Gênero: Pop Rock Ano de Lançamento: 2016 Tamanho: 343 Mb / Rar / 320Kbps Servidor: Mega / Mediafire »Track List: CD1 1. 2017 Sept 15. 4 MB) 02 - Good Times Coming & Feel The Sun. Size: 156 Mb. "I actually started Memory Almost Full before the album Chaos And Creation In The Backyard," Paul remembers. Files: Paul McCartney - Press To Play (1986) FLAC. Gives me the opportunity to serve society. In this extraordinary book, with unparalleled candour, Paul recounts his life and art through the prism of 154 songs from all stages of his career. My last video (The J. The Song We Were Singing 9. 	Dear Boy 7. Studio and Soundboard recordings. Again And Again And Again - Paul McCartney & Wings (1979) FLAC Remaster  Publicado por letvel en 19:25. Uploaded 01-16 2019, Size 6. Paul McCartney - McCartney (DCC GZS-1029) FLAC. cue) - 421 Mb | 01:04:24 Pop Rock, Classic Rock | Label: Capitol Records. 2017 Sept 15. Rated #848 in the best albums of 2007. Warm And Beautiful (3:14). jpg 700 × 467; 53 KB Venus and Mars songs album cover reproduction. Paul McCartney & Wings - Last Flight - The Complete 1979 Glasgow Concert (1979-12-17) FLAC. 53 GB WebSite: Album Preview. Seeders, leechers and torrent status is updated several times per day. FLAC Stereo 801 Kbps MP3 320 Kbps. Search for Toggle Navigation. Tracklist: 01. Paul_McCartney-Egypt_Station__Explorers_Edition-(00602577501470)-2CD-FLAC-2019-WRE FLAC (tracks) 16 bit/ 44,1kHz | Time - 01:33:36 minutes | 606. For No One. Play Long Tailed Winter Bird (Idris Elba Remix) by Paul McCartney & Idris Elba (02:44) – Paul McCartney & Idris Elba. London Town - Remastered 1993 (04:09). 'McCartney III' was hailed upon its release in 2020 as 'vital and comfortable taking new chances' (Rolling Stone) and 'cheery Paul. zip 996,40 Mb | on the flac. Silly Love Songs 6:20 Artful Dodger Mix 06. Official Paul McCartney account administered by MPL | Text me: +1(212)313-9547 Rick Rubin x Paul McCartney. Paul_McCartney-Egypt_Station__Explorers_Edition-(00602577501470)-2CD-FLAC-2019-WRE FLAC (tracks) 16 bit/ 44,1kHz | Time – 01:33:36 minutes | 606. 		Paul McCartney & Wings - Last Flight - The Complete 1979 Glasgow Concert (1979-12-17) FLAC. Tags:Adult Contemporary, Album, Best Album, Lossless, Paul McCartney. »Convert Currency € 13. Keyboards Soundcheck. Paul produced the album while Richard Hewson (who had previously worked on The Beatles' Let It Be) arranged and conducted. Comfort Of Love (B-side) 02. Tracklist: 1. Paul McCartney - McCartney (Deluxe Version) Released: 2011 Genre: Rock Bitrate: MP3 320 KBPS. http://flacmania. cue) Black Sabbath Официальная дискография (1970-2016), FLAC (image +. Full digital download. Paul McCartney - Discography (1970 - 2016) EAC/XLD Rip | 150xCD + 4xDVD | FLAC Tracks & Image + Cue + Log | Full Scans Included Total Size: 63. Paul McCartney: McCartney II (Hi-res Unlimited Version) (2011) [. Category: FLAC 96kHz/24bit Download: Only Available in the USA: Description; Tracks  View our Top 50 FLAC 96kHz/24bit Download: Home. 1,2,3 (2004), FLAC - Free epub, mobi, pdf ebooks download, ebook torrents download. 	› Musique › PAUL McCARTNEY - The Gold Collection (3CD) [FLAC 16bits-44 1kHz](AXALAR) Torrent au hasard [ROCK] Indochine - Singles Collection (2001-2021) FLAC 16 bits 44 1 KHz. FLAC (tracks) 16 bit/ 44,1kHz | Time – 02:02:56 minutes | 778. The Long And Winding Road - Faith Hill 08. Paul McCartney - McCartney III (2020) [Vinil Rip, 24/96] Vinil Rip, FLAC (tracks) 24-bit/96 kHz | Front Cover | Time - 44:47 minutes | 920 MB. ( FLAC ) Paul McCartney A Latter Day Best Of Compilation 1CD 24 Song FLAC. Keyboards & Wind Synthesizer Soundcheck (Listen to What the Man Said) 04. sir James Paul McCartney (ur. 04 - Artista. : XUNI328105F96. net On November - 6 - 2014. Aug 12, 2021 ·  McCartney III is the 18th solo album by English musician Paul McCartney, released on 18 December 2020 by Capitol Records. EAC Rip | FLAC (tracks+log+. TOMORROW X TOGETHER - The Chaos Chapter: FREEZE (Target Exclusive, CD) $11. Studio Master, Official Digital Download – Source: Store. Paul McCartney. McCartney's songs have hundreds of millions of copies worldwide; "Yesterday," written for the Beatles in 1965, has been played over six million times on U. 	Paul And Linda McCartney 1971 Ram - Full Album, Paul McCartney - Pure McCartney (2016) Vol/3, Memory Almost Full (2007) (full album Paul Mccartney (Full Album). sir James Paul McCartney (ur. Tags:Adult Contemporary, Album, Best Album, Lossless, Paul McCartney. 17MP3+Flac/RAR) By admin On August 22, 2019 In jpop With No Comments. Blackbird - Herbie Hancock & Corinne Bailey Rae 09. Non MTV McCartney Unplugs - Paul McCartney - Twenty Flight Rock. We Can Work It Out - Stevie Wonder 04. 2 MB 1971 - Ram/Paul & Linda McCartney - Ram. [Flac] Pop rock, Soft rock, Folk rock, Rock sperimentale DISCOGRAFIA 1967-2013::::: Bio & Info :::::Sir James Paul McCartney (Liverpool, 18 giugno 1942) è un cantautore, polistrumentista, compositore, produttore discografico e cinematografico, sceneggiatore, attore, pittore e attivista britannico. Silly Love Songs 8. Catalog #: TOCP-5991 Style: Pop Rock Year: 1980 (Reissue 1990) Format: FLAC (image +. This Deluxe Edition of the historic 1976 live album is a stunning Limited Edition four-book, four-disc (3 CD / 1 DVD) numbered box set featuring the original WINGS OVER AMERICA album re-mastered at Abbey Road Studios, a bonus audio disc recorded live at San Francisco's Cow Palace, a bonus DVD containing the rarely seen 75-minute TV special WINGS OVER THE WORLD, a 110-page commemorative tour. 2021-08-24 Bass Legends Paul Mccartney; 2021-08-11 Paul McCartney and His Creative Practice The Beatles and Beyond - Removed; 2021-06-29 Paul McCartney - Wingspan - Hits And History (2001) [2CD] Flac; 2021-06-25 Microsoft Excel 2016 Training book with many Exercises: From the Beginning to Advanced Applications. Paul McCartney BBC Radio4 Front Row 26 Dec 2012 b01pg54v. Paul McCartney 1942 A MusiCares Tribute to Paul McCartney. Publication date 2016-01-01 Topics Paul McCartney, rock, beatles. Band on the Run was a commercial success, but even if it was billed as a Wings effort, it was primarily recorded by Paul, Linda, and Denny Laine. альбом включает в себя следующие треки: Vol. Play Long Tailed Winter Bird (Idris Elba Remix) by Paul McCartney & Idris Elba (02:44) - Paul McCartney & Idris Elba. "Every Night" was released on Paul McCartney's debut solo album, titled simply McCartney, in the spring of 1970. Paul McCartney 2015-04-28 Budokan, Tokyo, JP (IEM+AUD/AUD/FLAC) 01. В альбом вошли композиции: Название: Collections. 		"I actually started Memory Almost Full before the album Chaos And Creation In The Backyard," Paul remembers. Edited and Introduced by Paul Muldoon. Andy Williams - Solitaire 4:21 15. Audio: FLAC CD / 44. HTTP download also available at fast speeds. Paul McCartney - My Love. Paul Mccartney - Mccartney (First Us Pressing Needledrop)(Jgster6969). Keyboards & Wind Synthesizer Soundcheck (Listen to What the Man Said) 04. it > Categories > Music torrents > Lossless torrents. PAUL McCARTNEY - CD • pliki użytkownika maro2006 przechowywane w serwisie Chomikuj. flac ‎ (FLAC audio file, length 40 d, 706 kbps overall). Full digital download. Maybe I'm Amazed 2. 1 KB 1973 - Band On The Run/01. Part 2 (13 CD + 1 DVD) Исполнитель: Paul McCartney Год: 2001-2020 Жанр:. альбом включает в себя следующие треки: Vol. The Long And Winding Road - Faith Hill 08. Paul McCartney - Beautiful Night EP (2020) Container: flac (tracks) Quality: Hi-Fi, lossless audio Sample Rate: 44100 kHz / 16 bit, Stereo Source: Digital download Album Artist/Name: Paul McCartney / Beautiful Night EP Genre: Rock Release Date: 2020-07-17 www publisher: hd24bit. piece length 524288. Paul McCartney - McCartney III (2020) [Vinil Rip, 24/96] Vinil Rip, FLAC (tracks) 24-bit/96 kHz | Front Cover | Time - 44:47 minutes | 920 MB. Performer: Paul McCartney. 	Paul_McCartney_and_Wings_ Flac. The artwork to 'FourFiveSeconds', Paul McCartney's 2015 chart-busting team-up with Rihanna and Kanye West, is a sight to behold. Paul McCartney: McCartney III (2020) FLAC Album [PMEDIA] Download was added 8 months ago in the Music download category. EMI Promo Interview Disc {tracks 4-33}. Paul McCartney 2015-04-25 Tokyo, JP (AUD+IEM/FLAC) Paul McCartney 2015-04-25 Tokyo, JP (AUD+IEM/FLAC) 2015 Tokyo Dome 2nd Night MK4 Master IEM Matrix EVSD-843/844/845. Press #2 - 12'' Dub Mix, April-June 1985. Produced by Paul, Jeff Lynne and George Martin and featuring a supporting cast of family and friends including Ringo Starr, Steve Miller, Linda McCartney and son James, Flaming Pie is equal parts a masterclass in songcraft and a sustained burst of joyful spontaneity. Paul McCartney & Wings - 1971-73 (2018) FLAC (tracks) 24-bit/96 kHz | Time - 06:31:42 minutes | 7,77 GB | Genre: Rock. Play over 265 million tracks for free on SoundCloud. Tracklist: 01. 1 kHz (Tracks) Performer: Paul McCartney & Wings Album: Wings at the Speed of Sound (Deluxe Edition) Published: 1976 / 2014 Genre: Rock File Size: 1. Travel theme. 11-12 Publisher: Unknown Reference: - Date: 2003 Source: Trade (CD-R) -> EAC (log included) -> FLAC Artwork: from BootlegZone (included) 01 Mull Of Kintyre - Session, August 1977 02 Waterspout - Early take one, August 1977 03 Waterspout - Early take two, August 1977. Genre : Rock. Download FLAC Download mp3. Thus far, there have been fourteen releases since the project began in 2010 (seven solo albums, six Wings albums, and one new Wings live album of previously unreleased. 	Paul McCartney & Wings - Wings Greatest (Remastered) (1978/2020) [FLAC 24bit/44,1kHz] Hi-Res Digital Download. Genre : Rock Release Date : 2021 Format : Flac (tracks) / Flac (tracks) Quality : 16bit – 44. Mardi Gras In New Orleans (Jan-Feb 1975). Paul McCartney & Wings – Wings Greatest (Remastered) (1978/2020) [FLAC 24bit/44,1kHz] Hi-Res Digital Download. McCartney III Imagined Spotify Exclusive Vinyl. zip 996,40 Mb | on the flac. Catalog #: TOCP-5991 Style: Pop Rock Year: 1980 (Reissue 1990) Format: FLAC (image +. It complements the appearance last week of the Home EP, in a series of. 2017 Sept 15. Growing Up Falling Down (B-side) 03. 8M Covers/Paul McCartney - The Platinum Collection - Booklet 2. paul mccartney - sun devil stadium, tempe, az; april 4, 1990 audience analog master>cdr>eac>flac set list: disc one: 1: figure of eight 2: jet 3: not to get you into my life 4: rough ride 5: band on the run 6: we got married 7: let `em in 8: the long and winding road 9: fool on the. Скачать альбом Paul McCartney - Maxi-Singles Collection Vol. Paul McCartney & Wings - Nineteen Hundred and Eighty Five[05:29]. 82 MB | Genre: Rock. "Junk" and "Singalong Junk" were released on Paul McCartney's debut solo album, titled simply McCartney, in the spring of 1970. Again And Again And Again - Paul McCartney & Wings (1979) FLAC Remaster  Publicado por letvel en 19:25.